загрузка...

Любовь сквозь время | BDRip 1080p | Лицензия

Скачать торрент Магнет-ссылка
Любовь сквозь время | BDRip 1080p | Лицензия
Фильмы

Дата добавления:

2014-06-12 06:50:00

Проверен:

kolbas

Год выхода:

2014

Жанр:

Фэнтези

Размер:

11.32 GB

Автор:

kolbas


Раздают 16

Качают 0






Скачать торрент
Жанр:  фэнтези, драма, мелодрама, детектив
Режиссер: Акива Голдсман
В ролях: Колин Фаррелл, Джессика Браун-Финдли, Рассел Кроу, Дженнифер Коннелли, Уилл Смит, Уильям Хёрт, МакКайла Твиггс, Ева Мари Сэйнт, Рипли Собо, Кевин Корригэн
 
О фильме:
Питер Лэй — талантливый вор, который и подумать не мог, что его собственное сердце украдет очаровательная Беверли Пенн. Но их любовь родилась под несчастливой звездой: Беверли угасает на глазах от неизлечимой болезни, а Питеру суждена куда более жестокая смерть от рук его давнего наставника, демона Перли Сомса. Питер отчаянно пытается спасти свою истинную любовь: сквозь века, вопреки силам тьмы, несмотря на то, что Перли делает все от него зависящее, чтобы одержать верх, ведь победитель получает все, а проигравший будет проклят навеки.
 

 
Выпущено: США
Продолжительность: 01:58:04
Озвучивание: Дублированное [Лицензия], [R5]
 
Формат: MKV
Качество:  BDRip 1080p
Видео: MPEG-4 AVC, 11600 Кбит/с, 1920x800
Аудио: Русский (AC3, 6 ch, 448 Кбит/с), украинский (AC3, 2 ch, 192 Кбит/с), английский (DTS, 6 ch, 1510 Кбит/с)
Субтитры: Русские, английские, украинские
 
Скачать: Сэмпл
 
SPOILER="Media Info"]General
Unique ID                                : 212351749026980527790380400604280777446 (0x9FC1758F672C8D2FB19523408877EAE6)
Complete name                            : VideosWinters.Tale.2014.x264.BDRip.1080p.mkv
Format                                   : Matroska
Format version                           : Version 2
File size                                : 11.3 GiB
Duration                                 : 1h 58mn
Overall bit rate                         : 13.7 Mbps
Encoded date                             : UTC 2014-06-11 23:57:23
Writing application                      : mkvmerge v5.8.0 ('No Sleep / Pillow') built on Sep  2 2012 15:37:04
Writing library                          : libebml v1.2.3 + libmatroska v1.3.0
 
Video
ID                                       : 1
Format                                   : AVC
Format/Info                              : Advanced Video Codec
Format profile                           : [email protected]
Format settings, CABAC                   : Yes
Format settings, ReFrames                : 5 frames
Codec ID                                 : V_MPEG4/ISO/AVC
Duration                                 : 1h 58mn
Bit rate                                 : 11.6 Mbps
Width                                    : 1 920 pixels
Height                                   : 800 pixels
Display aspect ratio                     : 2.40:1
Frame rate mode                          : Constant
Frame rate                               : 23.976 fps
Color space                              : YUV
Chroma subsampling                       : 4:2:0
Bit depth                                : 8 bits
Scan type                                : Progressive
Bits/(Pixel*Frame)                       : 0.315
Stream size                              : 9.32 GiB (82%)
Writing library                          : x264 core 142 r2409+42 04be48a tMod [[email protected]:2:0 X86_64]
Encoding settings                        : cabac=1 / ref=5 / deblock=1:-3:-3 / analyse=0x3:0x113 / me=umh / subme=11 / psy=1 / fade_compensate=0.00 / psy_rd=0.95:0.00 / mixed_ref=1 / me_range=48 / chroma_me=1 / trellis=2 / 8x8dct=1 / cqm=0 / deadzone=21,11 / fast_pskip=0 / chroma_qp_offset=-2 / threads=18 / lookahead_threads=3 / sliced_threads=0 / nr=0 / decimate=0 / interlaced=0 / bluray_compat=0 / constrained_intra=0 / fgo=0 / bframes=8 / b_pyramid=2 / b_adapt=2 / b_bias=0 / direct=3 / weightb=1 / open_gop=0 / weightp=2 / keyint=240 / keyint_min=24 / scenecut=40 / intra_refresh=0 / rc_lookahead=40 / rc=2pass / mbtree=0 / bitrate=11600 / ratetol=1.0 / qcomp=0.70 / qpmin=0:0:0 / qpmax=69:69:69 / qpstep=4 / cplxblur=20.0 / qblur=0.5 / vbv_maxrate=50000 / vbv_bufsize=40000 / nal_hrd=none / filler=0 / ip_ratio=1.20 / pb_ratio=1.20 / aq=4:0.80 / aq-sensitivity=10.00 / aq-factor=1.00:1.00:1.00 / aq2=0 / aq3=0
Language                                 : English
Default                                  : Yes
Forced                                   : Yes
 
Audio #1
ID                                       : 2
Format                                   : AC-3
Format/Info                              : Audio Coding 3
Mode extension                           : CM (complete main)
Format settings, Endianness              : Big
Codec ID                                 : A_AC3
Duration                                 : 1h 58mn
Bit rate mode                            : Constant
Bit rate                                 : 448 Kbps
Channel(s)                               : 6 channels
Channel positions                        : Front: L C R, Side: L R, LFE
Sampling rate                            : 48.0 KHz
Bit depth                                : 16 bits
Compression mode                         : Lossy
Stream size                              : 378 MiB (3%)
Language                                 : Russian
Default                                  : Yes
Forced                                   : Yes
 
Audio #2
ID                                       : 3
Format                                   : AC-3
Format/Info                              : Audio Coding 3
Mode extension                           : CM (complete main)
Format settings, Endianness              : Big
Codec ID                                 : A_AC3
Duration                                 : 1h 58mn
Bit rate mode                            : Constant
Bit rate                                 : 192 Kbps
Channel(s)                               : 2 channels
Channel positions                        : Front: L R
Sampling rate                            : 48.0 KHz
Bit depth                                : 16 bits
Compression mode                         : Lossy
Stream size                              : 162 MiB (1%)
Title                                    : iTunes
Language                                 : Ukrainian
Default                                  : No
Forced                                   : No
 
Audio #3
ID                                       : 4
Format                                   : DTS
Format/Info                              : Digital Theater Systems
Mode                                     : 16
Format settings, Endianness              : Big
Codec ID                                 : A_DTS
Duration                                 : 1h 58mn
Bit rate mode                            : Constant
Bit rate                                 : 1 509 Kbps
Channel(s)                               : 6 channels
Channel positions                        : Front: L C R, Side: L R, LFE
Sampling rate                            : 48.0 KHz
Bit depth                                : 24 bits
Compression mode                         : Lossy
Stream size                              : 1.24 GiB (11%)
Language                                 : English
Default                                  : No
Forced                                   : No
 
Text #1
ID                                       : 5
Format                                   : UTF-8
Codec ID                                 : S_TEXT/UTF8
Codec ID/Info                            : UTF-8 Plain Text
Title                                    : Forced
Language                                 : Russian
Default                                  : Yes
Forced                                   : Yes
 
Text #2
ID                                       : 6
Format                                   : UTF-8
Codec ID                                 : S_TEXT/UTF8
Codec ID/Info                            : UTF-8 Plain Text
Title                                    : Full
Language                                 : Russian
Default                                  : No
Forced                                   : No
 
Text #3
ID                                       : 7
Format                                   : UTF-8
Codec ID                                 : S_TEXT/UTF8
Codec ID/Info                            : UTF-8 Plain Text
Title                                    : Forced
Language                                 : Ukrainian
Default                                  : No
Forced                                   : No
 
Text #4
ID                                       : 8
Format                                   : UTF-8
Codec ID                                 : S_TEXT/UTF8
Codec ID/Info                            : UTF-8 Plain Text
Title                                    : Full
Language                                 : Ukrainian
Default                                  : No
Forced                                   : No
 
Text #5
ID                                       : 9
Format                                   : UTF-8
Codec ID                                 : S_TEXT/UTF8
Codec ID/Info                            : UTF-8 Plain Text
Language                                 : English
Default                                  : No
Forced                                   : No
 
Menu
00:00:00.000                             : en:00:00:00.000
00:10:45.854                             : en:00:10:45.854
00:20:09.959                             : en:00:20:09.959
00:30:41.048                             : en:00:30:41.048
00:40:14.454                             : en:00:40:14.454
00:52:37.905                             : en:00:52:37.905
01:00:17.447                             : en:01:00:17.447
01:09:26.996                             : en:01:09:26.996
01:20:44.006                             : en:01:20:44.006
01:30:54.991                             : en:01:30:54.991
01:39:53.654                             : en:01:39:53.654
01:50:38.507                             : en:01:50:38.507[/spoiler]



Скриншоты:

Любовь сквозь время | BDRip 1080p | Лицензия Любовь сквозь время | BDRip 1080p | Лицензия Любовь сквозь время | BDRip 1080p | Лицензия

Похожие раздачи:



Комментарии:

    Комментариев пока еще нет

Добавить комментарий

Комментарии могут добавлять только зарегистрированные пользователи